Baya Pirata

Questo forum si sta trasferendo,ti consigliamo vivamente di iscriverti su http://bayapirata.altervista.org altrimenti non potrete avere supporto dallo staff,buona navigazione...


    Amore 14 [Mv]

    Ed.Drummond
    Ed.Drummond
    Signore dei Sette Mari
    Signore dei Sette Mari

    Numero di messaggi : 4476
    Data d'iscrizione : 01.05.09

    Amore 14 [Mv] Empty Amore 14 [Mv]

    Messaggio Da Ed.Drummond il Mer Nov 11, 2009 3:03 pm

    Amore 14 [Mv] 47471
    REGIA: Federico Moccia
    SCENEGGIATURA: Federico Moccia, Luca Infascelli, Chiara Barzini
    ATTORI:
    Veronica Olivier, Giuseppe Maggio, Beatrice Flammini, Flavia Roberto,
    Raniero Monaco Di Lapio, Pamela Villoresi, Pietro De Silva, Emiliana
    Franzone, Riccardo Garrone, Giulio Mezza, Daniele La Leggia, Leonardo
    Bugiantella, Vittoria Antonini, Andrea Maj Beretta
    FOTOGRAFIA: Marcello Montarsi
    PRODUZIONE: Marco Belardi per LOTUS PRODUCTION
    DISTRIBUZIONE: Medusa
    PAESE: Italia 2009
    USCITA CINEMA: 30/10/2009
    GENERE: Commedia
    DURATA: 95 Min
    FORMATO: Colore

    Amore 14 [Mv] Dvohw7
    CODICE
    AMORE
    14 racconta la storia di Carolina detta Caro, 14 anni, alle prese con i
    primi amori, il primo bacio, la prima volta, l'amicizia, le feste, la
    scuola, il rapporto spesso conflittuale con i genitori.
    Ci sono le
    amiche del cuore, Alis e Clod, con le quali condividere i giorni e i
    sogni. Ci sono i primi baci rubati nella penombra del portone. C'è la
    scuola, due nonni meravigliosi che la sanno guardare in fondo all'anima
    e un fratello leggendario, Rusty James, che aiuta il suo cuore a
    sognare. E poi c'è l'amore, quello vero, che ha il nome di
    Massimiliano, incontrato in una libreria un pomeriggio di settembre.
    AMORE
    14 è un viaggio attraverso i sentimenti, l'entusiasmo che si ha
    nell'incontrare il primo amore, il dolore di un'improvvisa delusione,
    la prima, quella che ti lascia senza parole, è la perdita di una
    persona cara, è l'amicizia che credi non ti deluderà mai. È la storia
    di un amore unico e dolcissimo, quello tra i nonni di Carolina, capace
    di superare il tempo e lo spazio. È una storia di grandi passioni e
    forti emozioni, di un giovane scrittore, Rusty James, che per inseguire
    le proprie ambizioni ha il coraggio di andare contro tutti e tutto, di
    contraddire il padre e andare a vivere in un barcone sul Tevere dove
    finalmente riuscirà a realizzare il suo sogno.
    AMORE 14 è l'amore, visto in tutte le sue innumerevoli sfaccettature, è l'amicizia, è il coraggio di credere nei propri sogni.


    Dettagli Tecnici
    CODICE
    Complete name : Amore.14.2009.iTALIAN.MD.CAM.XViD-ENiG.CD1.avi
    Format : AVI
    Format/Info : Audio Video Interleave
    File size : 612 MiB
    Duration : 51mn 40s
    Overall bit rate : 1 657 Kbps
    Writing application : Lavf52.22.1

    Video
    ID : 0
    Format : MPEG-4 Visual
    Codec ID : XVID
    Codec ID/Hint : XviD
    Duration : 51mn 40s
    Bit rate : 1 516 Kbps
    Width : 352 pixels
    Height : 576 pixels
    Display aspect ratio : 0.611
    Frame rate : 25.000 fps
    Resolution : 24 bits
    Bits/(Pixel*Frame) : 0.299
    Stream size : 560 MiB (91%)

    Audio
    ID : 1
    Format : MPEG Audio
    Format version : Version 1
    Format profile : Layer 3
    Format settings, Mode : Joint stereo / MS Stereo
    Codec ID : 55
    Codec ID/Hint : MP3
    Duration : 51mn 40s
    Bit rate mode : Constant
    Bit rate : 128 Kbps
    Channel(s) : 2 channels
    Sampling rate : 48.0 KHz
    Resolution : 16 bits
    Stream size : 47.3 MiB (8%)
    Alignment : Aligned on interleaves
    Interleave, duration : 24 ms (0.60 video frame)



    [Devi essere iscritto e connesso per vedere questo link]

    [Devi essere iscritto e connesso per vedere questo link]

    OPPURE

    [Devi essere iscritto e connesso per vedere questo link]
    [Devi essere iscritto e connesso per vedere questo link]





    Fai parte dello staff e guadagna uppando..
    clicca [Devi essere iscritto e connesso per vedere questo link]
    P.s. Si ricorda che un grazie non costa niente

    Amore 14 [Mv] 2prfhxk
    Amore 14 [Mv] Trosiuserbar1
    Amore 14 [Mv] Faber2
    Amore 14 [Mv] 32111

      La data/ora di oggi è Lun Set 23, 2019 1:41 am